Marvels The Punisher (6) | Final Score watch32 | HD Yuuki Yuuna wa yuusha de aru: Washio Sumi no shou dai-1-shou 'Tomodachi'

Loveless.2017.720p.BluRay.Russian[MochaLocha]

To start this download, you need a free bitTorrent client like µTorrent.


Informations

Bookmark this torrent.

Seeds0
Peers0
Size1.9 GB
Comments0
Categorymovies
Hashe3101249a67a82fa3556c5cf852e548cd016eef9
ReportedFake (0Password (0Bad quality (0Virus (0Offensive (0Spam (0Real Torrent (0
Bookmark

Description

By: [url=http://mochalocha.com]MohaLocha[/url]


General


Format                      : MP4
Format profile              : Base Media / Version 2
Codec ID                    : mp42 (isom/iso2/avc1/mp41)
File size                   : 1.93 GiB
Duration                    : 2 h 6 min
Overall bit rate mode       : Variable
Overall bit rate            : 2 180 kb/s
Encoded date                : UTC 2018-06-11 21:44:03
Tagged date                 : UTC 2018-06-11 21:44:03
Writing application         : HandBrake 1.0.7 2017040900

Video
ID                          : 1
Format                      : AVC
Format/Info                 : Advanced Video Codec
Format profile              : [email protected]
Format settings, CABAC      : Yes
Format settings, ReFrames   : 5 frames
Codec ID                    : avc1
Codec ID/Info               : Advanced Video Coding
Duration                    : 2 h 6 min
Bit rate                    : 2 000 kb/s
Width                       : 1 280 pixels
Height                      : 536 pixels
Display aspect ratio        : 2.40:1
Frame rate mode             : Variable
Frame rate                  : 23.976 (24000/1001) FPS
Minimum frame rate          : 23.974 FPS
Maximum frame rate          : 23.981 FPS
Color space                 : YUV
Chroma subsampling          : 4:2:0
Bit depth                   : 8 bits
Scan type                   : Progressive
Bits/(Pixel*Frame)          : 0.122
Stream size                 : 1.75 GiB (91%)
Writing library             : x264 core 148 r2708 86b7198
Encoding settings           : cabac=1 / ref=5 / deblock=1:0:0 / analyse=0x3:0x113 / me=umh / subme=8 / psy=1 / psy_rd=1.00:0.00 / mixed_ref=1 / me_range=16 / chroma_me=1 / trellis=1 / 8x8dct=1 / cqm=0 / deadzone=21,11 / fast_pskip=1 / chroma_qp_offset=-2 / threads=17 / lookahead_threads=2 / sliced_threads=0 / nr=0 / decimate=1 / interlaced=0 / bluray_compat=0 / constrained_intra=0 / bframes=3 / b_pyramid=2 / b_adapt=2 / b_bias=0 / direct=3 / weightb=1 / open_gop=0 / weightp=2 / keyint=240 / keyint_min=24 / scenecut=40 / intra_refresh=0 / rc_lookahead=50 / rc=abr / mbtree=1 / bitrate=2000 / ratetol=1.0 / qcomp=0.60 / qpmin=0 / qpmax=69 / qpstep=4 / vbv_maxrate=62500 / vbv_bufsize=78125 / nal_hrd=none / filler=0 / ip_ratio=1.40 / aq=1:1.00
Encoded date                : UTC 2018-06-11 21:44:03
Tagged date                 : UTC 2018-06-11 21:44:03
Color range                 : Limited
Color primaries             : BT.709
Transfer characteristics    : BT.709
Matrix coefficients         : BT.709

Audio
ID                          : 2
Format                      : AAC
Format/Info                 : Advanced Audio Codec
Format profile              : LC
Codec ID                    : 40
Duration                    : 2 h 6 min
Bit rate mode               : Variable
Bit rate                    : 192 kb/s
Channel(s)                  : 2 channels
Channel(s)_Original         : 6 channels
Channel positions           : Front: L C R, Side: L R, LFE
Sampling rate               : 48.0 kHz
Frame rate                  : 46.875 FPS (1024 spf)
Compression mode            : Lossy
Stream size                 : 175 MiB (9%)
Title                       : Surround / Surround
Language                    : Russian
Default                     : Yes
Alternate group             : 1
Encoded date                : UTC 2018-06-11 21:44:03
Tagged date                 : UTC 2018-06-11 21:44:03



Comments

0 Comments

Sign in | Create a new account


Files

Torrent NameSize
Loveless 2017/Loveless.2017.720p.BluRay[Russian].mp41.9 GB
Loveless 2017/MochaLocha.com.txt55.0 Bytes

Share